Добавить

Сборник Полицейская академия: Антология / Police Academy: The Complete Collection (1984-1994) BDRip 720p скачать торрент

10.09.2021 - 15:30


Жанр: боевик, комедия, криминал
Год выпуска: 1984 / 1985 / 1986 / 1987 / 1988 / 1989 / 1994
Продолжительность: 01:36:24 / 01:27:09 / 01:23:43 / 01:27:16 / 01:29:50 / 01:23:55 / 01:22:41
Режиссёр: Хью Уилсон, Джерри Пэрис, Джим Дрейк, Алан Майерсон, Питер Бонерз, Алан Меттер


«What an Institution!»


[spoiler=Полицейская академия / Police Academy (1984) BDRip 720p]
Полицейская академия: Антология / Police Academy: The Complete Collection (1984-1994) BDRip 720p

Информация о фильме
Название: Полицейская академия
Оригинальное название: Police Academy
Год выхода: 1984
Жанр: боевик, комедия, криминал
Режиссер: Хью Уилсон
В ролях: Стив Гуттенберг, Ким Кэтролл, Дж. У. Бейли, Бубба Смит, Донован Скотт, Джордж Гейнс, Эндрю Рубин, Дэвид Граф, Лесли Истербрук, Майкл Уинслоу

О фильме:
Мирные жители США находятся в опасности! Мэр города принял новый закон – больше нет никаких ограничений при приеме на службу в полицию. Вес, пол, рост и слабые умственные способности никому не помешают поступить в полицейскую академию. Приемные комиссии ломятся от толстяков, ботаников и уличных хулиганов. Преподаватели академии в шоке и намерены любым способом избавиться от студентов. Но экзамены, физподготовка и гей-бары абсолютно не страшат новичков. Не такое видали!



Выпущено: США
Студия: Warner Bros.
Продолжительность: 01:36:24
Перевод: Дублированный (лицензия) + Профессиональный многоголосый закадровый + Оригинал

Файл
Кодек: x264
Качество: BDRip (источник: Blu-ray Disc)
Видео: 1280x720 (1,78:1), 23.976 fps, 5914 kbps
Аудио #1: AC-3, 2 ch, 192 kbps (Rus) Дубляж, Варус Видео
Аудио #2: AC-3, 2 ch, 192 kbps (Ukr) Многоголосый закадровый, 1+1
Аудио #3: AC-3, 1 ch, 192 kbps (Eng) Оригинал
Субтитры: Русские, Английские

[spoiler=Скриншоты][/spoiler][spoiler=MI]Общее
Уникальный идентификатор : 175675613574732465978494800060482850157 (0x8429E478CC102F5F84007A0938940D6D)
Полное имя : F:Police Academy. The Complete Collection (1984-1994)Police.Academy.1984.BDRip.720p.Rus.Ukr.Eng.mkv
Формат : Matroska
Версия формата : Version 2
Размер файла : 4,37 Гбайт
Продолжительность : 1 ч. 36 м.
Общий поток : 6492 Кбит/сек
Название фильма : Полицейская академия / Police Academy (1984)
Дата кодирования : UTC 2014-01-25 23:48:16
Программа кодирования : mkvmerge v5.8.0 ('No Sleep / Pillow') built on Sep 2 2012 15:37:04
Библиотека кодирования : libebml v1.2.3 + libmatroska v1.3.0
Attachment : Yes

Видео
Идентификатор : 1
Формат : AVC
Формат/Информация : Advanced Video Codec
Профиль формата : [email protected]
Параметр CABAC формата : Да
Параметр ReFrames формата : 9 кадров
Идентификатор кодека : V_MPEG4/ISO/AVC
Продолжительность : 1 ч. 36 м.
Битрейт : 5914 Кбит/сек
Ширина : 1280 пикселей
Высота : 720 пикселей
Соотношение сторон : 16:9
Режим частоты кадров : Постоянный
Частота кадров : 23,976 кадра/сек
Цветовое пространство : YUV
Субдискретизация насыщенности : 4:2:0
Битовая глубина : 8 бит
Тип развёртки : Прогрессивная
Бит/(Пиксели*Кадры) : 0.268
Размер потока : 3,90 Гбайт (89%)
Заголовок : Release by N1NT3NDO
Библиотека кодирования : x264 core 140 r2377 1ca7bb9
Настройки программы : cabac=1 / ref=9 / deblock=1:-3:-3 / analyse=0x3:0x133 / me=umh / subme=10 / psy=1 / psy_rd=1.00:0.00 / mixed_ref=1 / me_range=32 / chroma_me=1 / trellis=2 / 8x8dct=1 / cqm=0 / deadzone=21,11 / fast_pskip=0 / chroma_qp_offset=-2 / threads=12 / lookahead_threads=1 / sliced_threads=0 / nr=0 / decimate=0 / interlaced=0 / bluray_compat=0 / constrained_intra=0 / bframes=6 / b_pyramid=2 / b_adapt=2 / b_bias=0 / direct=3 / weightb=1 / open_gop=0 / weightp=2 / keyint=240 / keyint_min=23 / scenecut=40 / intra_refresh=0 / rc=2pass / mbtree=0 / bitrate=5914 / ratetol=1.0 / qcomp=0.60 / qpmin=0 / qpmax=69 / qpstep=4 / cplxblur=20.0 / qblur=0.5 / ip_ratio=1.40 / pb_ratio=1.30 / aq=1:1.00
Язык : English
Default : Да
Forced : Нет

Аудио #1
Идентификатор : 2
Формат : AC-3
Формат/Информация : Audio Coding 3
Расширение режима : CM (complete main)
Параметр Endianness формата : Big
Идентификатор кодека : A_AC3
Продолжительность : 1 ч. 36 м.
Вид битрейта : Постоянный
Битрейт : 192 Кбит/сек
Каналы : 2 канала
Расположение каналов : Front: L R
Частота : 48,0 КГц
Битовая глубина : 16 бит
Метод сжатия : С потерями
Размер потока : 132 Мбайт (3%)
Заголовок : Дубляж, Варус Видео
Язык : Russian
Default : Да
Forced : Нет

Аудио #2
Идентификатор : 3
Формат : AC-3
Формат/Информация : Audio Coding 3
Расширение режима : CM (complete main)
Параметр Endianness формата : Big
Идентификатор кодека : A_AC3
Продолжительность : 1 ч. 36 м.
Вид битрейта : Постоянный
Битрейт : 192 Кбит/сек
Каналы : 2 канала
Расположение каналов : Front: L R
Частота : 48,0 КГц
Битовая глубина : 16 бит
Метод сжатия : С потерями
Размер потока : 132 Мбайт (3%)
Заголовок : Многоголосый закадровый, 1+1
Язык : Ukrainian
Default : Нет
Forced : Нет

Аудио #3
Идентификатор : 4
Формат : AC-3
Формат/Информация : Audio Coding 3
Расширение режима : CM (complete main)
Параметр Endianness формата : Big
Идентификатор кодека : A_AC3
Продолжительность : 1 ч. 36 м.
Вид битрейта : Постоянный
Битрейт : 192 Кбит/сек
Каналы : 1 канал
Расположение каналов : Front: C
Частота : 48,0 КГц
Битовая глубина : 16 бит
Метод сжатия : С потерями
Размер потока : 132 Мбайт (3%)
Заголовок : English
Язык : English
Default : Нет
Forced : Нет

Текст #1
Идентификатор : 5
Формат : UTF-8
Идентификатор кодека : S_TEXT/UTF8
Идентификатор кодека/Информация : UTF-8 Plain Text
Заголовок : Russian
Язык : Russian
Default : Нет
Forced : Нет

Текст #2
Идентификатор : 6
Формат : UTF-8
Идентификатор кодека : S_TEXT/UTF8
Идентификатор кодека/Информация : UTF-8 Plain Text
Заголовок : English
Язык : English
Default : Нет
Forced : Нет

Меню
00:00:00.000 : :Chapter 01
00:01:09.778 : :Chapter 02
00:03:51.522 : :Chapter 03
00:05:36.377 : :Chapter 04
00:06:50.451 : :Chapter 05
00:09:35.032 : :Chapter 06
00:11:07.792 : :Chapter 07
00:15:15.915 : :Chapter 08
00:18:30.859 : :Chapter 09
00:20:38.612 : :Chapter 10
00:23:03.673 : :Chapter 11
00:26:58.742 : :Chapter 12
00:30:31.287 : :Chapter 13
00:33:21.874 : :Chapter 14
00:36:33.107 : :Chapter 15
00:41:48.672 : :Chapter 16
00:48:53.930 : :Chapter 17
00:52:03.578 : :Chapter 18
00:53:26.786 : :Chapter 19
01:00:42.555 : :Chapter 20
01:04:53.681 : :Chapter 21
01:08:49.917 : :Chapter 22
01:11:36.583 : :Chapter 23
01:13:45.212 : :Chapter 24
01:17:03.493 : :Chapter 25
01:21:11.283 : :Chapter 26
01:23:22.789 : :Chapter 27
01:24:46.039 : :Chapter 28
01:28:13.204 : :Chapter 29
01:29:48.716 : :Chapter 30
01:33:01.867 : :Chapter 31
01:36:18.314 : :Chapter 32
[/spoiler]
[spoiler=Полицейская академия 2: Их первое задание / Police Academy 2: Their First Assignment (1985) BDRip 720p]


Информация о фильме
Название: Полицейская академия 2: Их первое задание
Оригинальное название: Police Academy 2: Their First Assignment
Год выхода: 1985
Жанр: боевик, комедия, криминал
Режиссер: Джерри Пэрис
В ролях: Стив Гуттенберг, Бубба Смит, Дэвид Граф, Майкл Уинслоу, Брюс Малер, Мэрион Рэмси, Коллин Кэмп, Ховард Хессеман, Арт Метрано, Джордж Гейнс

О фильме:
Банда хулиганов творит безобразия по всему городу и опустошает карманы всех, кто находится с ними на одном тротуаре. Осторожно! Когда увальни в голубой форме решат разобраться с этими парнями, это закончится умопомрачительным смехом.



Выпущено: США
Студия: Warner Bros.
Продолжительность: 01:27:09
Перевод: Дублированный (лицензия) + Профессиональный многоголосый закадровый + Оригинал

Файл
Кодек: x264
Качество: BDRip (источник: Blu-ray Disc)
Видео: 1280x720 (1,78:1), 23.976 fps, 6605 kbps
Аудио #1: AC-3, 2 ch, 192 kbps (Rus) Дубляж, Варус Видео
Аудио #2: AC-3, 2 ch, 192 kbps (Ukr) Многоголосый закадровый, 1+1
Аудио #3: AC-3, 1 ch, 192 kbps (Eng) Оригинал
Субтитры: Русские, Английские

[spoiler=Скриншоты][/spoiler][spoiler=MI]Общее
Уникальный идентификатор : 220556716978210847793263859234951631743 (0xA5EDADB687313546B92B28FFFC23937F)
Полное имя : F:Police Academy. The Complete Collection (1984-1994)Police.Academy.2.Their.First.Assignment.1985.BDRip.720p.Rus.Ukr.Eng.mkv
Формат : Matroska
Версия формата : Version 2
Размер файла : 4,37 Гбайт
Продолжительность : 1 ч. 27 м.
Общий поток : 7181 Кбит/сек
Название фильма : Полицейская академия 2: Их первое задание / Police Academy 2: Their First Assignment (1985)
Дата кодирования : UTC 2014-01-25 23:53:13
Программа кодирования : mkvmerge v5.8.0 ('No Sleep / Pillow') built on Sep 2 2012 15:37:04
Библиотека кодирования : libebml v1.2.3 + libmatroska v1.3.0
Attachment : Yes

Видео
Идентификатор : 1
Формат : AVC
Формат/Информация : Advanced Video Codec
Профиль формата : [email protected]
Параметр CABAC формата : Да
Параметр ReFrames формата : 9 кадров
Идентификатор кодека : V_MPEG4/ISO/AVC
Продолжительность : 1 ч. 27 м.
Битрейт : 6605 Кбит/сек
Ширина : 1280 пикселей
Высота : 720 пикселей
Соотношение сторон : 16:9
Режим частоты кадров : Постоянный
Частота кадров : 23,976 кадра/сек
Цветовое пространство : YUV
Субдискретизация насыщенности : 4:2:0
Битовая глубина : 8 бит
Тип развёртки : Прогрессивная
Бит/(Пиксели*Кадры) : 0.299
Размер потока : 3,93 Гбайт (90%)
Заголовок : Release by N1NT3NDO
Библиотека кодирования : x264 core 140 r2377 1ca7bb9
Настройки программы : cabac=1 / ref=9 / deblock=1:-3:-3 / analyse=0x3:0x133 / me=umh / subme=10 / psy=1 / psy_rd=1.00:0.00 / mixed_ref=1 / me_range=32 / chroma_me=1 / trellis=2 / 8x8dct=1 / cqm=0 / deadzone=21,11 / fast_pskip=0 / chroma_qp_offset=-2 / threads=12 / lookahead_threads=1 / sliced_threads=0 / nr=0 / decimate=0 / interlaced=0 / bluray_compat=0 / constrained_intra=0 / bframes=6 / b_pyramid=2 / b_adapt=2 / b_bias=0 / direct=3 / weightb=1 / open_gop=0 / weightp=2 / keyint=240 / keyint_min=23 / scenecut=40 / intra_refresh=0 / rc=2pass / mbtree=0 / bitrate=6605 / ratetol=1.0 / qcomp=0.60 / qpmin=0 / qpmax=69 / qpstep=4 / cplxblur=20.0 / qblur=0.5 / ip_ratio=1.40 / pb_ratio=1.30 / aq=1:1.00
Язык : English
Default : Да
Forced : Нет

Аудио #1
Идентификатор : 2
Формат : AC-3
Формат/Информация : Audio Coding 3
Расширение режима : CM (complete main)
Параметр Endianness формата : Big
Идентификатор кодека : A_AC3
Продолжительность : 1 ч. 27 м.
Вид битрейта : Постоянный
Битрейт : 192 Кбит/сек
Каналы : 2 канала
Расположение каналов : Front: L R
Частота : 48,0 КГц
Битовая глубина : 16 бит
Метод сжатия : С потерями
Размер потока : 120 Мбайт (3%)
Заголовок : Дубляж, Варус Видео
Язык : Russian
Default : Да
Forced : Нет

Аудио #2
Идентификатор : 3
Формат : AC-3
Формат/Информация : Audio Coding 3
Расширение режима : CM (complete main)
Параметр Endianness формата : Big
Идентификатор кодека : A_AC3
Продолжительность : 1 ч. 27 м.
Вид битрейта : Постоянный
Битрейт : 192 Кбит/сек
Каналы : 2 канала
Расположение каналов : Front: L R
Частота : 48,0 КГц
Битовая глубина : 16 бит
Метод сжатия : С потерями
Размер потока : 120 Мбайт (3%)
Заголовок : Многоголосый закадровый, 1+1
Язык : Ukrainian
Default : Нет
Forced : Нет

Аудио #3
Идентификатор : 4
Формат : AC-3
Формат/Информация : Audio Coding 3
Расширение режима : CM (complete main)
Параметр Endianness формата : Big
Идентификатор кодека : A_AC3
Продолжительность : 1 ч. 27 м.
Вид битрейта : Постоянный
Битрейт : 192 Кбит/сек
Каналы : 1 канал
Расположение каналов : Front: C
Частота : 48,0 КГц
Битовая глубина : 16 бит
Метод сжатия : С потерями
Размер потока : 120 Мбайт (3%)
Заголовок : English
Язык : English
Default : Нет
Forced : Нет

Текст #1
Идентификатор : 5
Формат : UTF-8
Идентификатор кодека : S_TEXT/UTF8
Идентификатор кодека/Информация : UTF-8 Plain Text
Заголовок : Russian
Язык : Russian
Default : Нет
Forced : Нет

Текст #2
Идентификатор : 6
Формат : UTF-8
Идентификатор кодека : S_TEXT/UTF8
Идентификатор кодека/Информация : UTF-8 Plain Text
Заголовок : English
Язык : English
Default : Нет
Forced : Нет

Меню
00:00:00.000 : :Chapter 01
00:06:53.329 : :Chapter 02
00:12:16.444 : :Chapter 03
00:16:45.129 : :Chapter 04
00:24:58.747 : :Chapter 05
00:29:04.284 : :Chapter 06
00:30:40.839 : :Chapter 07
00:32:30.907 : :Chapter 08
00:34:40.661 : :Chapter 09
00:37:46.806 : :Chapter 10
00:45:53.375 : :Chapter 11
00:48:06.800 : :Chapter 12
00:50:45.083 : :Chapter 13
00:54:03.073 : :Chapter 14
00:57:17.934 : :Chapter 15
00:59:33.653 : :Chapter 16
01:03:55.373 : :Chapter 17
01:08:08.918 : :Chapter 18
01:09:56.901 : :Chapter 19
01:15:20.641 : :Chapter 20
01:22:12.886 : :Chapter 21
01:23:51.359 : :Chapter 22
01:27:03.176 : :Chapter 23
[/spoiler]
[spoiler=Полицейская академия 3: Переподготовка / Police Academy 3: Back in Training (1986) BDRip 720p]


Информация о фильме
Название: Полицейская академия 3: Переподготовка
Оригинальное название: Police Academy 3: Back in Training
Год выхода: 1986
Жанр: боевик, комедия, криминал
Режиссер: Джерри Пэрис
В ролях: Стив Гуттенберг, Бубба Смит, Дэвид Граф, Майкл Уинслоу, Мэрион Рэмси, Лесли Истербрук, Арт Метрано, Тим Казурински, Боб Голдтуэйт, Джордж Гейнс

О фильме:
Правительство заявило, что только одна из двух полицейских школ может продолжать свою работу. Начинается жестокое состязание на выживание - ни одна из академий не желает закрываться, в дело идут все средства.

Махони, Хайтауэр, Тэклберри, Джонс, Хукс и Кэллагэн под командованием несгибаемого коменданта Лассарда, мобилизуют для спасения своей Альма Матер новую команду безнадежных рекрутов.



Выпущено: США
Студия: Warner Bros.
Продолжительность: 01:23:43
Перевод: Дублированный (лицензия) + Профессиональный многоголосый закадровый + Оригинал

Файл
Кодек: x264
Качество: BDRip (источник: Blu-ray Disc)
Видео: 1280x720 (1,78:1), 23.976 fps, 6899 kbps
Аудио #1: AC-3, 2 ch, 192 kbps (Rus) Дубляж, Варус Видео
Аудио #2: AC-3, 2 ch, 192 kbps (Ukr) Многоголосый закадровый, 1+1
Аудио #3: AC-3, 1 ch, 192 kbps (Eng) Оригинал
Субтитры: Английские

[spoiler=Скриншоты][/spoiler][spoiler=MI]Общее
Уникальный идентификатор : 172799822500429737410323646579828848152 (0x82000906653FECACAA858784ED3FF618)
Полное имя : F:Police Academy. The Complete Collection (1984-1994)Police.Academy.3.Back.In.Training.1986.BDRip.720p.Rus.Ukr.Eng.mkv
Формат : Matroska
Версия формата : Version 2
Размер файла : 4,37 Гбайт
Продолжительность : 1 ч. 23 м.
Общий поток : 7474 Кбит/сек
Название фильма : Полицейская академия 3: Переподготовка / Police Academy 3: Back in Training (1986)
Дата кодирования : UTC 2014-01-18 22:35:15
Программа кодирования : mkvmerge v5.8.0 ('No Sleep / Pillow') built on Sep 2 2012 15:37:04
Библиотека кодирования : libebml v1.2.3 + libmatroska v1.3.0
Attachment : Yes

Видео
Идентификатор : 1
Формат : AVC
Формат/Информация : Advanced Video Codec
Профиль формата : [email protected]
Параметр CABAC формата : Да
Параметр ReFrames формата : 9 кадров
Идентификатор кодека : V_MPEG4/ISO/AVC
Продолжительность : 1 ч. 23 м.
Битрейт : 6899 Кбит/сек
Ширина : 1280 пикселей
Высота : 720 пикселей
Соотношение сторон : 16:9
Режим частоты кадров : Постоянный
Частота кадров : 23,976 кадра/сек
Цветовое пространство : YUV
Субдискретизация насыщенности : 4:2:0
Битовая глубина : 8 бит
Тип развёртки : Прогрессивная
Бит/(Пиксели*Кадры) : 0.312
Размер потока : 3,95 Гбайт (90%)
Заголовок : Release by N1NT3NDO
Библиотека кодирования : x264 core 140 r2377 1ca7bb9
Настройки программы : cabac=1 / ref=9 / deblock=1:-3:-3 / analyse=0x3:0x133 / me=umh / subme=10 / psy=1 / psy_rd=1.00:0.00 / mixed_ref=1 / me_range=32 / chroma_me=1 / trellis=2 / 8x8dct=1 / cqm=0 / deadzone=21,11 / fast_pskip=0 / chroma_qp_offset=-2 / threads=12 / lookahead_threads=1 / sliced_threads=0 / nr=0 / decimate=0 / interlaced=0 / bluray_compat=0 / constrained_intra=0 / bframes=6 / b_pyramid=2 / b_adapt=2 / b_bias=0 / direct=3 / weightb=1 / open_gop=0 / weightp=2 / keyint=240 / keyint_min=23 / scenecut=40 / intra_refresh=0 / rc=2pass / mbtree=0 / bitrate=6899 / ratetol=1.0 / qcomp=0.60 / qpmin=0 / qpmax=69 / qpstep=4 / cplxblur=20.0 / qblur=0.5 / ip_ratio=1.40 / pb_ratio=1.30 / aq=1:1.00
Язык : English
Default : Да
Forced : Нет

Аудио #1
Идентификатор : 2
Формат : AC-3
Формат/Информация : Audio Coding 3
Расширение режима : CM (complete main)
Параметр Endianness формата : Big
Идентификатор кодека : A_AC3
Продолжительность : 1 ч. 23 м.
Вид битрейта : Постоянный
Битрейт : 192 Кбит/сек
Каналы : 2 канала
Расположение каналов : Front: L R
Частота : 48,0 КГц
Битовая глубина : 16 бит
Метод сжатия : С потерями
Размер потока : 115 Мбайт (3%)
Заголовок : Дубляж, Варус Видео
Язык : Russian
Default : Да
Forced : Нет

Аудио #2
Идентификатор : 3
Формат : AC-3
Формат/Информация : Audio Coding 3
Расширение режима : CM (complete main)
Параметр Endianness формата : Big
Идентификатор кодека : A_AC3
Продолжительность : 1 ч. 23 м.
Вид битрейта : Постоянный
Битрейт : 192 Кбит/сек
Каналы : 2 канала
Расположение каналов : Front: L R
Частота : 48,0 КГц
Битовая глубина : 16 бит
Метод сжатия : С потерями
Размер потока : 115 Мбайт (3%)
Заголовок : Многоголосый закадровый, 1+1
Язык : Ukrainian
Default : Нет
Forced : Нет

Аудио #3
Идентификатор : 4
Формат : AC-3
Формат/Информация : Audio Coding 3
Расширение режима : CM (complete main)
Параметр Endianness формата : Big
Идентификатор кодека : A_AC3
Продолжительность : 1 ч. 23 м.
Вид битрейта : Постоянный
Битрейт : 192 Кбит/сек
Каналы : 1 канал
Расположение каналов : Front: C
Частота : 48,0 КГц
Битовая глубина : 16 бит
Метод сжатия : С потерями
Размер потока : 115 Мбайт (3%)
Заголовок : English
Язык : English
Default : Нет
Forced : Нет

Текст
Идентификатор : 5
Формат : UTF-8
Идентификатор кодека : S_TEXT/UTF8
Идентификатор кодека/Информация : UTF-8 Plain Text
Заголовок : English
Язык : English
Default : Нет
Forced : Нет

Меню
00:00:00.000 : :Chapter 01
00:08:02.607 : :Chapter 02
00:11:19.136 : :Chapter 03
00:14:18.983 : :Chapter 04
00:20:56.672 : :Chapter 05
00:24:20.959 : :Chapter 06
00:27:19.554 : :Chapter 07
00:31:00.066 : :Chapter 08
00:34:15.053 : :Chapter 09
00:36:34.108 : :Chapter 10
00:38:11.330 : :Chapter 11
00:42:34.969 : :Chapter 12
00:45:31.854 : :Chapter 13
00:47:48.782 : :Chapter 14
00:50:57.721 : :Chapter 15
00:55:32.037 : :Chapter 16
00:57:08.633 : :Chapter 17
01:01:58.423 : :Chapter 18
01:06:07.755 : :Chapter 19
01:11:38.460 : :Chapter 20
01:13:57.641 : :Chapter 21
01:19:59.544 : :Chapter 22
01:23:37.721 : :Chapter 23
[/spoiler]
[spoiler=Полицейская академия 4: Граждане в дозоре / Police Academy 4: Citizens on Patrol (1987) BDRip 720p]


Информация о фильме
Название: Полицейская академия 4: Граждане в дозоре
Оригинальное название: Police Academy 4: Citizens on Patrol
Год выхода: 1987
Жанр: боевик, комедия, криминал
Режиссер: Джим Дрейк
В ролях: Стив Гуттенберг, Бубба Смит, Майкл Уинслоу, Дэвид Граф, Тим Казурински, Шэрон Стоун, Лесли Истербрук, Мэрион Рэмси, Лэнс Кинси, Дж. У. Бейли

О фильме:
Упрямый и предприимчивый Лассард решает усилить безопасность на улице с помощью создания добровольных дружин под названием «Граждане на дежурстве». Угадайте, кто будет инструктировать обывателей? Верно, те же выпускники академии, что принимали «неуд» в своих зачетках за отличные отметки.

Когда конкурент, лейтенант Харрис, наблюдает за этими упражнениями, он решает использовать их для дискредитации Академии. Но наши герои сложили свои коэффициенты умственного развития и поднялись в воздух на бипланах и воздушных шарах: кто-то должен спасать положение!



Выпущено: США
Студия: Warner Bros.
Продолжительность: 01:27:16
Перевод: Дублированный (лицензия) + Профессиональный многоголосый закадровый + Оригинал

Файл
Кодек: x264
Качество: BDRip (источник: Blu-ray Disc)
Видео: 1280x720 (1,78:1), 23.976 fps, 6595 kbps
Аудио #1: AC-3, 2 ch, 192 kbps (Rus) Дубляж, Варус Видео
Аудио #2: AC-3, 2 ch, 192 kbps (Ukr) Многоголосый закадровый, 1+1
Аудио #3: AC-3, 1 ch, 192 kbps (Eng) Оригинал
Субтитры: Английские

[spoiler=Скриншоты][/spoiler][spoiler=MI]Общее
Уникальный идентификатор : 190742556505372446747666660344565190821 (0x8F7FAE1C9FBC796C80A3B8130731D0A5)
Полное имя : F:Police Academy. The Complete Collection (1984-1994)Police.Academy.4.Citizens.On.Patrol.1987.BDRip.720p.Rus.Ukr.Eng.mkv
Формат : Matroska
Версия формата : Version 2
Размер файла : 4,37 Гбайт
Продолжительность : 1 ч. 27 м.
Общий поток : 7173 Кбит/сек
Название фильма : Полицейская академия 4: Граждане в дозоре / Police Academy 4: Citizens on Patrol (1987)
Дата кодирования : UTC 2014-01-25 22:43:26
Программа кодирования : mkvmerge v5.8.0 ('No Sleep / Pillow') built on Sep 2 2012 15:37:04
Библиотека кодирования : libebml v1.2.3 + libmatroska v1.3.0
Attachment : Yes

Видео
Идентификатор : 1
Формат : AVC
Формат/Информация : Advanced Video Codec
Профиль формата : [email protected]
Параметр CABAC формата : Да
Параметр ReFrames формата : 9 кадров
Идентификатор кодека : V_MPEG4/ISO/AVC
Продолжительность : 1 ч. 27 м.
Битрейт : 6595 Кбит/сек
Ширина : 1280 пикселей
Высота : 720 пикселей
Соотношение сторон : 16:9
Режим частоты кадров : Постоянный
Частота кадров : 23,976 кадра/сек
Цветовое пространство : YUV
Субдискретизация насыщенности : 4:2:0
Битовая глубина : 8 бит
Тип развёртки : Прогрессивная
Бит/(Пиксели*Кадры) : 0.298
Размер потока : 3,94 Гбайт (90%)
Заголовок : Release by N1NT3NDO
Библиотека кодирования : x264 core 140 r2377 1ca7bb9
Настройки программы : cabac=1 / ref=9 / deblock=1:-3:-3 / analyse=0x3:0x133 / me=umh / subme=10 / psy=1 / psy_rd=1.00:0.00 / mixed_ref=1 / me_range=32 / chroma_me=1 / trellis=2 / 8x8dct=1 / cqm=0 / deadzone=21,11 / fast_pskip=0 / chroma_qp_offset=-2 / threads=12 / lookahead_threads=1 / sliced_threads=0 / nr=0 / decimate=0 / interlaced=0 / bluray_compat=0 / constrained_intra=0 / bframes=6 / b_pyramid=2 / b_adapt=2 / b_bias=0 / direct=3 / weightb=1 / open_gop=0 / weightp=2 / keyint=240 / keyint_min=23 / scenecut=40 / intra_refresh=0 / rc=2pass / mbtree=0 / bitrate=6595 / ratetol=1.0 / qcomp=0.60 / qpmin=0 / qpmax=69 / qpstep=4 / cplxblur=20.0 / qblur=0.5 / ip_ratio=1.40 / pb_ratio=1.30 / aq=1:1.00
Язык : English
Default : Да
Forced : Нет

Аудио #1
Идентификатор : 2
Формат : AC-3
Формат/Информация : Audio Coding 3
Расширение режима : CM (complete main)
Параметр Endianness формата : Big
Идентификатор кодека : A_AC3
Продолжительность : 1 ч. 27 м.
Вид битрейта : Постоянный
Битрейт : 192 Кбит/сек
Каналы : 2 канала
Расположение каналов : Front: L R
Частота : 48,0 КГц
Битовая глубина : 16 бит
Метод сжатия : С потерями
Размер потока : 120 Мбайт (3%)
Заголовок : Дубляж, Варус Видео
Язык : Russian
Default : Да
Forced : Нет

Аудио #2
Идентификатор : 3
Формат : AC-3
Формат/Информация : Audio Coding 3
Расширение режима : CM (complete main)
Параметр Endianness формата : Big
Идентификатор кодека : A_AC3
Продолжительность : 1 ч. 27 м.
Вид битрейта : Постоянный
Битрейт : 192 Кбит/сек
Каналы : 2 канала
Расположение каналов : Front: L R
Частота : 48,0 КГц
Битовая глубина : 16 бит
Метод сжатия : С потерями
Размер потока : 120 Мбайт (3%)
Заголовок : Многоголосый закадровый, 1+1
Язык : Ukrainian
Default : Нет
Forced : Нет

Аудио #3
Идентификатор : 4
Формат : AC-3
Формат/Информация : Audio Coding 3
Расширение режима : CM (complete main)
Параметр Endianness формата : Big
Идентификатор кодека : A_AC3
Продолжительность : 1 ч. 27 м.
Вид битрейта : Постоянный
Битрейт : 192 Кбит/сек
Каналы : 1 канал
Расположение каналов : Front: C
Частота : 48,0 КГц
Битовая глубина : 16 бит
Метод сжатия : С потерями
Размер потока : 120 Мбайт (3%)
Заголовок : English
Язык : English
Default : Нет
Forced : Нет

Текст
Идентификатор : 5
Формат : UTF-8
Идентификатор кодека : S_TEXT/UTF8
Идентификатор кодека/Информация : UTF-8 Plain Text
Заголовок : English
Язык : English
Default : Нет
Forced : Нет

Меню
00:00:00.000 : :Chapter 01
00:07:20.148 : :Chapter 02
00:10:17.992 : :Chapter 03
00:12:32.877 : :Chapter 04
00:16:17.101 : :Chapter 05
00:21:10.227 : :Chapter 06
00:23:19.231 : :Chapter 07
00:28:10.146 : :Chapter 08
00:32:52.929 : :Chapter 09
00:36:14.505 : :Chapter 10
00:40:37.309 : :Chapter 11
00:43:59.094 : :Chapter 12
00:47:57.416 : :Chapter 13
00:53:44.471 : :Chapter 14
00:56:29.928 : :Chapter 15
00:58:49.234 : :Chapter 16
01:00:35.465 : :Chapter 17
01:03:19.003 : :Chapter 18
01:05:17.830 : :Chapter 19
01:08:01.577 : :Chapter 20
01:10:34.521 : :Chapter 21
01:21:30.468 : :Chapter 22
01:27:11.059 : :Chapter 23
[/spoiler]
[spoiler=Полицейская академия 5: Место назначения – Майами Бич / Police Academy 5: Assignment: Miami Beach (1988) BDRip 720p]


Информация о фильме
Название: Полицейская академия 5: Место назначения – Майами Бич
Оригинальное название: Police Academy 5: Assignment: Miami Beach
Год выхода: 1988
Жанр: боевик, комедия, криминал
Режиссер: Алан Майерсон
В ролях: Бубба Смит, Дэвид Граф, Майкл Уинслоу, Лесли Истербрук, Мэрион Рэмси, Джанет Джонс, Лэнс Кинси, Мэтт МакКой, Дж. У. Бейли, Джордж Гейнс

О фильме:
Солнце, веселье и красивые девушки. Где всему этому быть, как не в Майами Бич? На этом пятом празднике смеха наши герои летят в Майами на чествование любимого коменданта Лассарда. Но у преступников не бывает отпусков, когда отдыхают наши любимые полицейские.

Лассард похищен. И даже соблазнительные пляжные вечеринки не смогут отвлечь наших неистовых бойцов от отчаянной попытки спасения заложника.



Выпущено: США
Студия: Warner Bros.
Продолжительность: 01:29:50
Перевод: Дублированный (лицензия) + Профессиональный многоголосый закадровый + Оригинал

Файл
Кодек: x264
Качество: BDRip (источник: Blu-ray Disc)
Видео: 1280x720 (1,78:1), 23.976 fps, 6390 kbps
Аудио #1: AC-3, 2 ch, 192 kbps (Rus) Дубляж, Варус Видео
Аудио #2: AC-3, 2 ch, 192 kbps (Ukr) Многоголосый закадровый, 1+1
Аудио #3: AC-3, 1 ch, 192 kbps (Eng) Оригинал
Субтитры: Английские

[spoiler=Скриншоты][/spoiler][spoiler=MI]Общее
Уникальный идентификатор : 177844599248815304525908992179853102068 (0x85CB9FB8D55AC4E2ABA6DEA104D48BF4)
Полное имя : F:Police Academy. The Complete Collection (1984-1994)Police.Academy.5.Assignment.Miami.Beach.1988.BDRip.720p.Rus.Ukr.Eng.mkv
Формат : Matroska
Версия формата : Version 2
Размер файла : 4,37 Гбайт
Продолжительность : 1 ч. 29 м.
Общий поток : 6964 Кбит/сек
Название фильма : Полицейская академия 5: Место назначения – Майами Бич / Police Academy 5: Assignment: Miami Beach (1988)
Дата кодирования : UTC 2014-01-25 23:21:28
Программа кодирования : mkvmerge v5.8.0 ('No Sleep / Pillow') built on Sep 2 2012 15:37:04
Библиотека кодирования : libebml v1.2.3 + libmatroska v1.3.0
Attachment : Yes

Видео
Идентификатор : 1
Формат : AVC
Формат/Информация : Advanced Video Codec
Профиль формата : [email protected]
Параметр CABAC формата : Да
Параметр ReFrames формата : 9 кадров
Идентификатор кодека : V_MPEG4/ISO/AVC
Продолжительность : 1 ч. 29 м.
Битрейт : 6390 Кбит/сек
Ширина : 1280 пикселей
Высота : 720 пикселей
Соотношение сторон : 16:9
Режим частоты кадров : Постоянный
Частота кадров : 23,976 кадра/сек
Цветовое пространство : YUV
Субдискретизация насыщенности : 4:2:0
Битовая глубина : 8 бит
Тип развёртки : Прогрессивная
Бит/(Пиксели*Кадры) : 0.289
Размер потока : 3,92 Гбайт (90%)
Заголовок : Release by N1NT3NDO
Библиотека кодирования : x264 core 140 r2377 1ca7bb9
Настройки программы : cabac=1 / ref=9 / deblock=1:-3:-3 / analyse=0x3:0x133 / me=umh / subme=10 / psy=1 / psy_rd=1.00:0.00 / mixed_ref=1 / me_range=32 / chroma_me=1 / trellis=2 / 8x8dct=1 / cqm=0 / deadzone=21,11 / fast_pskip=0 / chroma_qp_offset=-2 / threads=12 / lookahead_threads=1 / sliced_threads=0 / nr=0 / decimate=0 / interlaced=0 / bluray_compat=0 / constrained_intra=0 / bframes=6 / b_pyramid=2 / b_adapt=2 / b_bias=0 / direct=3 / weightb=1 / open_gop=0 / weightp=2 / keyint=240 / keyint_min=23 / scenecut=40 / intra_refresh=0 / rc=2pass / mbtree=0 / bitrate=6390 / ratetol=1.0 / qcomp=0.60 / qpmin=0 / qpmax=69 / qpstep=4 / cplxblur=20.0 / qblur=0.5 / ip_ratio=1.40 / pb_ratio=1.30 / aq=1:1.00
Язык : English
Default : Да
Forced : Нет

Аудио #1
Идентификатор : 2
Формат : AC-3
Формат/Информация : Audio Coding 3
Расширение режима : CM (complete main)
Параметр Endianness формата : Big
Идентификатор кодека : A_AC3
Продолжительность : 1 ч. 29 м.
Вид битрейта : Постоянный
Битрейт : 192 Кбит/сек
Каналы : 2 канала
Расположение каналов : Front: L R
Частота : 48,0 КГц
Битовая глубина : 16 бит
Метод сжатия : С потерями
Размер потока : 123 Мбайт (3%)
Заголовок : Дубляж, Варус Видео
Язык : Russian
Default : Да
Forced : Нет

Аудио #2
Идентификатор : 3
Формат : AC-3
Формат/Информация : Audio Coding 3
Расширение режима : CM (complete main)
Параметр Endianness формата : Big
Идентификатор кодека : A_AC3
Продолжительность : 1 ч. 29 м.
Вид битрейта : Постоянный
Битрейт : 192 Кбит/сек
Каналы : 2 канала
Расположение каналов : Front: L R
Частота : 48,0 КГц
Битовая глубина : 16 бит
Метод сжатия : С потерями
Размер потока : 123 Мбайт (3%)
Заголовок : Многоголосый закадровый, 1+1
Язык : Ukrainian
Default : Нет
Forced : Нет

Аудио #3
Идентификатор : 4
Формат : AC-3
Формат/Информация : Audio Coding 3
Расширение режима : CM (complete main)
Параметр Endianness формата : Big
Идентификатор кодека : A_AC3
Продолжительность : 1 ч. 29 м.
Вид битрейта : Постоянный
Битрейт : 192 Кбит/сек
Каналы : 1 канал
Расположение каналов : Front: C
Частота : 48,0 КГц
Битовая глубина : 16 бит
Метод сжатия : С потерями
Размер потока : 123 Мбайт (3%)
Заголовок : English
Язык : English
Default : Нет
Forced : Нет

Текст
Идентификатор : 5
Формат : UTF-8
Идентификатор кодека : S_TEXT/UTF8
Идентификатор кодека/Информация : UTF-8 Plain Text
Заголовок : English
Язык : English
Default : Нет
Forced : Нет

Меню
00:00:00.000 : :Chapter 01
00:05:50.516 : :Chapter 02
00:10:07.857 : :Chapter 03
00:15:19.752 : :Chapter 04
00:17:33.051 : :Chapter 05
00:21:19.569 : :Chapter 06
00:27:07.459 : :Chapter 07
00:32:01.294 : :Chapter 08
00:36:21.804 : :Chapter 09
00:41:42.750 : :Chapter 10
00:45:20.092 : :Chapter 11
00:47:52.911 : :Chapter 12
00:50:10.966 : :Chapter 13
00:56:19.834 : :Chapter 14
00:57:35.493 : :Chapter 15
01:03:58.209 : :Chapter 16
01:10:54.750 : :Chapter 17
01:15:23.769 : :Chapter 18
01:20:02.255 : :Chapter 19
01:21:52.115 : :Chapter 20
01:24:12.005 : :Chapter 21
01:27:18.733 : :Chapter 22
01:29:44.420 : :Chapter 23
[/spoiler]
[spoiler=Полицейская академия 6: Город в осаде / Police Academy 6: City Under Siege (1989) BDRip 720p]


Информация о фильме
Название: Полицейская академия 6: Город в осаде
Оригинальное название: Police Academy 6: City Under Siege
Год выхода: 1989
Жанр: боевик, комедия, криминал
Режиссер: Питер Бонерз
В ролях: Бубба Смит, Дэвид Граф, Майкл Уинслоу, Лесли Истербрук, Мэрион Рэмси, Лэнс Кинси, Мэтт МакКой, Брюс Малер, Дж. У. Бейли, Джордж Гейнс

О фильме:
Вспышка криминальной активности под кодовым названием «Операция Хаос» может потребовать занавеса для ничего не подозревающего города. Лучшие полицейские специалисты из знаменитой Полицейской Академии взялись за дело.



Выпущено: США
Студия: Warner Bros.
Продолжительность: 01:23:55
Перевод: Дублированный (лицензия) + Профессиональный многоголосый закадровый + Оригинал

Файл
Кодек: x264
Качество: BDRip (источник: Blu-ray Disc)
Видео: 1280x720 (1,78:1), 23.976 fps, 6882 kbps
Аудио #1: AC-3, 2 ch, 192 kbps (Rus) Дубляж, Варус Видео
Аудио #2: AC-3, 2 ch, 192 kbps (Ukr) Многоголосый закадровый, 1+1
Аудио #3: AC-3, 1 ch, 192 kbps (Eng) Оригинал
Субтитры: Английские

[spoiler=Скриншоты][/spoiler][spoiler=MI]Общее
Уникальный идентификатор : 222915397918390599548677283619752382514 (0xA7B3F1A96F043F13A60C39B9CFF81032)
Полное имя : F:Police Academy. The Complete Collection (1984-1994)Police.Academy.6.City.Under.Siege.1989.BDRip.720p.Rus.Ukr.Eng.mkv
Формат : Matroska
Версия формата : Version 2
Размер файла : 4,37 Гбайт
Продолжительность : 1 ч. 23 м.
Общий поток : 7453 Кбит/сек
Название фильма : Полицейская академия 6: Город в осаде / Police Academy 6: City Under Siege (1989)
Дата кодирования : UTC 2014-01-25 23:29:52
Программа кодирования : mkvmerge v5.8.0 ('No Sleep / Pillow') built on Sep 2 2012 15:37:04
Библиотека кодирования : libebml v1.2.3 + libmatroska v1.3.0
Attachment : Yes

Видео
Идентификатор : 1
Формат : AVC
Формат/Информация : Advanced Video Codec
Профиль формата : [email protected]
Параметр CABAC формата : Да
Параметр ReFrames формата : 9 кадров
Идентификатор кодека : V_MPEG4/ISO/AVC
Продолжительность : 1 ч. 23 м.
Битрейт : 6882 Кбит/сек
Ширина : 1280 пикселей
Высота : 720 пикселей
Соотношение сторон : 16:9
Режим частоты кадров : Постоянный
Частота кадров : 23,976 кадра/сек
Цветовое пространство : YUV
Субдискретизация насыщенности : 4:2:0
Битовая глубина : 8 бит
Тип развёртки : Прогрессивная
Бит/(Пиксели*Кадры) : 0.311
Размер потока : 3,95 Гбайт (90%)
Заголовок : Release by N1NT3NDO
Библиотека кодирования : x264 core 140 r2377 1ca7bb9
Настройки программы : cabac=1 / ref=9 / deblock=1:-3:-3 / analyse=0x3:0x133 / me=umh / subme=10 / psy=1 / psy_rd=1.00:0.00 / mixed_ref=1 / me_range=32 / chroma_me=1 / trellis=2 / 8x8dct=1 / cqm=0 / deadzone=21,11 / fast_pskip=0 / chroma_qp_offset=-2 / threads=12 / lookahead_threads=1 / sliced_threads=0 / nr=0 / decimate=0 / interlaced=0 / bluray_compat=0 / constrained_intra=0 / bframes=6 / b_pyramid=2 / b_adapt=2 / b_bias=0 / direct=3 / weightb=1 / open_gop=0 / weightp=2 / keyint=240 / keyint_min=23 / scenecut=40 / intra_refresh=0 / rc=2pass / mbtree=0 / bitrate=6882 / ratetol=1.0 / qcomp=0.60 / qpmin=0 / qpmax=69 / qpstep=4 / cplxblur=20.0 / qblur=0.5 / ip_ratio=1.40 / pb_ratio=1.30 / aq=1:1.00
Язык : English
Default : Да
Forced : Нет

Аудио #1
Идентификатор : 2
Формат : AC-3
Формат/Информация : Audio Coding 3
Расширение режима : CM (complete main)
Параметр Endianness формата : Big
Идентификатор кодека : A_AC3
Продолжительность : 1 ч. 23 м.
Вид битрейта : Постоянный
Битрейт : 192 Кбит/сек
Каналы : 2 канала
Расположение каналов : Front: L R
Частота : 48,0 КГц
Битовая глубина : 16 бит
Метод сжатия : С потерями
Размер потока : 115 Мбайт (3%)
Заголовок : Дубляж, Варус Видео
Язык : Russian
Default : Да
Forced : Нет

Аудио #2
Идентификатор : 3
Формат : AC-3
Формат/Информация : Audio Coding 3
Расширение режима : CM (complete main)
Параметр Endianness формата : Big
Идентификатор кодека : A_AC3
Продолжительность : 1 ч. 23 м.
Вид битрейта : Постоянный
Битрейт : 192 Кбит/сек
Каналы : 2 канала
Расположение каналов : Front: L R
Частота : 48,0 КГц
Битовая глубина : 16 бит
Метод сжатия : С потерями
Размер потока : 115 Мбайт (3%)
Заголовок : Многоголосый закадровый, 1+1
Язык : Ukrainian
Default : Нет
Forced : Нет

Аудио #3
Идентификатор : 4
Формат : AC-3
Формат/Информация : Audio Coding 3
Расширение режима : CM (complete main)
Параметр Endianness формата : Big
Идентификатор кодека : A_AC3
Продолжительность : 1 ч. 23 м.
Вид битрейта : Постоянный
Битрейт : 192 Кбит/сек
Каналы : 1 канал
Расположение каналов : Front: C
Частота : 48,0 КГц
Битовая глубина : 16 бит
Метод сжатия : С потерями
Размер потока : 115 Мбайт (3%)
Заголовок : English
Язык : English
Default : Нет
Forced : Нет

Текст
Идентификатор : 5
Формат : UTF-8
Идентификатор кодека : S_TEXT/UTF8
Идентификатор кодека/Информация : UTF-8 Plain Text
Заголовок : English
Язык : English
Default : Нет
Forced : Нет

Меню
00:00:00.000 : :Chapter 01
00:04:27.892 : :Chapter 02
00:06:34.727 : :Chapter 03
00:11:29.605 : :Chapter 04
00:14:56.645 : :Chapter 05
00:18:09.963 : :Chapter 06
00:20:14.713 : :Chapter 07
00:22:20.964 : :Chapter 08
00:24:48.445 : :Chapter 09
00:29:41.779 : :Chapter 10
00:32:51.594 : :Chapter 11
00:36:16.048 : :Chapter 12
00:39:49.011 : :Chapter 13
00:43:02.663 : :Chapter 14
00:46:45.552 : :Chapter 15
00:50:02.082 : :Chapter 16
00:54:15.085 : :Chapter 17
00:56:26.925 : :Chapter 18
01:04:36.664 : :Chapter 19
01:08:44.203 : :Chapter 20
01:15:37.658 : :Chapter 21
01:20:52.222 : :Chapter 22
01:23:50.025 : :Chapter 23
[/spoiler]
[spoiler=Полицейская академия 7: Миссия в Москве / Police Academy: Mission to Moscow (1994) BDRip 720p]


Информация о фильме
Название: Полицейская академия 7: Миссия в Москве
Оригинальное название: Police Academy: Mission to Moscow
Год выхода: 1994
Жанр: боевик, комедия, криминал
Режиссер: Алан Меттер
В ролях: Джордж Гейнс, Майкл Уинслоу, Дэвид Граф, Лесли Истербрук, Дж. У. Бейли, Кристофер Ли, Рон Перлман, Клэр Форлани, Чарли Шлэттер, Ричард Израэль

О фильме:
Полицейская академия в Москве! Русский балет. Русская водка. И русская мафия. Самая опасная операция в жизни полицейских академиков! Смогут ли они вернуться живыми?..



Выпущено: США
Студия: Warner Bros.
Продолжительность: 01:22:41
Перевод: Профессиональный двухголосый закадровый + Профессиональный многоголосый закадровый + Оригинал

Файл
Кодек: x264
Качество: BDRip (источник: Blu-ray Disc)
Видео: 1280x720 (1,78:1), 23.976 fps, 6993 kbps
Аудио #1: AC-3, 2 ch, 192 kbps (Rus) Двухголосый закадровый, Карусель
Аудио #2: AC-3, 2 ch, 192 kbps (Ukr) Многоголосый закадровый, 1+1
Аудио #3: AC-3, 2 ch, 192 kbps (Eng) Оригинал
Субтитры: Русские, Английские

[spoiler=Скриншоты][/spoiler][spoiler=MI]Общее
Уникальный идентификатор : 192712458854135630407693723387335087676 (0x90FB11CBD31C0D72A37CB7B41F39163C)
Полное имя : F:Police Academy. The Complete Collection (1984-1994)Police.Academy.Mission.To.Moscow.1994.BDRip.720p.Rus.Ukr.Eng.mkv
Формат : Matroska
Версия формата : Version 2
Размер файла : 4,37 Гбайт
Продолжительность : 1 ч. 22 м.
Общий поток : 7568 Кбит/сек
Название фильма : Полицейская академия 7: Миссия в Москве / Police Academy: Mission to Moscow (1994)
Дата кодирования : UTC 2014-01-25 23:35:34
Программа кодирования : mkvmerge v5.8.0 ('No Sleep / Pillow') built on Sep 2 2012 15:37:04
Библиотека кодирования : libebml v1.2.3 + libmatroska v1.3.0
Attachment : Yes

Видео
Идентификатор : 1
Формат : AVC
Формат/Информация : Advanced Video Codec
Профиль формата : [email protected]
Параметр CABAC формата : Да
Параметр ReFrames формата : 9 кадров
Идентификатор кодека : V_MPEG4/ISO/AVC
Продолжительность : 1 ч. 22 м.
Битрейт : 6993 Кбит/сек
Ширина : 1280 пикселей
Высота : 720 пикселей
Соотношение сторон : 16:9
Режим частоты кадров : Постоянный
Частота кадров : 23,976 кадра/сек
Цветовое пространство : YUV
Субдискретизация насыщенности : 4:2:0
Битовая глубина : 8 бит
Тип развёртки : Прогрессивная
Бит/(Пиксели*Кадры) : 0.316
Размер потока : 3,95 Гбайт (90%)
Заголовок : Release by N1NT3NDO
Библиотека кодирования : x264 core 140 r2377 1ca7bb9
Настройки программы : cabac=1 / ref=9 / deblock=1:-3:-3 / analyse=0x3:0x133 / me=umh / subme=10 / psy=1 / psy_rd=1.00:0.00 / mixed_ref=1 / me_range=32 / chroma_me=1 / trellis=2 / 8x8dct=1 / cqm=0 / deadzone=21,11 / fast_pskip=0 / chroma_qp_offset=-2 / threads=12 / lookahead_threads=1 / sliced_threads=0 / nr=0 / decimate=0 / interlaced=0 / bluray_compat=0 / constrained_intra=0 / bframes=6 / b_pyramid=2 / b_adapt=2 / b_bias=0 / direct=3 / weightb=1 / open_gop=0 / weightp=2 / keyint=240 / keyint_min=23 / scenecut=40 / intra_refresh=0 / rc=2pass / mbtree=0 / bitrate=6993 / ratetol=1.0 / qcomp=0.60 / qpmin=0 / qpmax=69 / qpstep=4 / cplxblur=20.0 / qblur=0.5 / ip_ratio=1.40 / pb_ratio=1.30 / aq=1:1.00
Язык : English
Default : Да
Forced : Нет

Аудио #1
Идентификатор : 2
Формат : AC-3
Формат/Информация : Audio Coding 3
Расширение режима : CM (complete main)
Параметр Endianness формата : Big
Идентификатор кодека : A_AC3
Продолжительность : 1 ч. 22 м.
Вид битрейта : Постоянный
Битрейт : 192 Кбит/сек
Каналы : 2 канала
Расположение каналов : Front: L R
Частота : 48,0 КГц
Битовая глубина : 16 бит
Метод сжатия : С потерями
Размер потока : 114 Мбайт (3%)
Заголовок : Двухголосый закадровый, Карусель
Язык : Russian
Default : Да
Forced : Нет

Аудио #2
Идентификатор : 3
Формат : AC-3
Формат/Информация : Audio Coding 3
Расширение режима : CM (complete main)
Параметр Endianness формата : Big
Идентификатор кодека : A_AC3
Продолжительность : 1 ч. 22 м.
Вид битрейта : Постоянный
Битрейт : 192 Кбит/сек
Каналы : 2 канала
Расположение каналов : Front: L R
Частота : 48,0 КГц
Битовая глубина : 16 бит
Метод сжатия : С потерями
Размер потока : 114 Мбайт (3%)
Заголовок : Многоголосый закадровый, 1+1
Язык : Ukrainian
Default : Нет
Forced : Нет

Аудио #3
Идентификатор : 4
Формат : AC-3
Формат/Информация : Audio Coding 3
Расширение режима : CM (complete main)
Параметр Endianness формата : Big
Идентификатор кодека : A_AC3
Продолжительность : 1 ч. 22 м.
Вид битрейта : Постоянный
Битрейт : 192 Кбит/сек
Каналы : 2 канала
Расположение каналов : Front: L R
Частота : 48,0 КГц
Битовая глубина : 16 бит
Метод сжатия : С потерями
Размер потока : 114 Мбайт (3%)
Заголовок : English
Язык : English
Default : Нет
Forced : Нет

Текст #1
Идентификатор : 5
Формат : UTF-8
Идентификатор кодека : S_TEXT/UTF8
Идентификатор кодека/Информация : UTF-8 Plain Text
Заголовок : Russian
Язык : Russian
Default : Нет
Forced : Нет

Текст #2
Идентификатор : 6
Формат : UTF-8
Идентификатор кодека : S_TEXT/UTF8
Идентификатор кодека/Информация : UTF-8 Plain Text
Заголовок : English
Язык : English
Default : Нет
Forced : Нет

Меню
00:00:00.000 : :Chapter 01
00:06:48.241 : :Chapter 02
00:09:49.547 : :Chapter 03
00:12:20.114 : :Chapter 04
00:13:24.512 : :Chapter 05
00:15:25.382 : :Chapter 06
00:17:47.775 : :Chapter 07
00:20:26.558 : :Chapter 08
00:23:52.180 : :Chapter 09
00:28:12.732 : :Chapter 10
00:30:30.203 : :Chapter 11
00:33:31.426 : :Chapter 12
00:35:35.007 : :Chapter 13
00:40:36.934 : :Chapter 14
00:41:28.277 : :Chapter 15
00:49:23.001 : :Chapter 16
00:57:03.670 : :Chapter 17
01:02:05.972 : :Chapter 18
01:06:39.620 : :Chapter 19
01:10:12.458 : :Chapter 20
01:13:58.392 : :Chapter 21
01:17:58.298 : :Chapter 22
01:22:36.284 : :Chapter 23
[/spoiler]
Скачать файл: Полицейская академия: Антология / Police Academy: The Complete Collection (1984-1994) BDRip 720p [154,47 Kb] (cкачиваний: 5)
По ссылке ниже, на этой странице, доступна для загрузки с торрента музыкальный сборник Полицейская академия: Антология / Police Academy: The Complete Collection (1984-1994) BDRip 720p напрямую с сервера на PC бесплатно.

Комментарии к материалу
Кликните на изображение чтобы обновить код, если он неразборчив