Добавить

Сборник Никто / Nobody (2021) BDRip 1080p | Кубик в кубе скачать торрент

21.09.2021 - 01:30



Информация о фильме
Название: Никто
Оригинальное название: Nobody
Год выхода: 2021
Жанр: [spoiler=MediaInfo]Общее
Уникальный идентификатор : 266542668917005423460795932525353292234 (0xC88640314F6F65552B065507FDECD1CA)
Полное имя : Nobody.2021.BDRip.1080p.mkv
Формат : Matroska
Версия формата : Version 4
Размер файла : 9,41 Гбайт
Продолжительность : 1 ч. 31 м.
Общий поток : 14,7 Мбит/сек
Название фильма : Никто / Nobody (2021)
Дата кодирования : UTC 2021-09-20 09:32:56
Программа кодирования : mkvmerge v61.0.0 ('So') 64-bit
Библиотека кодирования : libebml v1.4.2 + libmatroska v1.6.4

Видео
Идентификатор : 1
Формат : AVC
Формат/Информация : Advanced Video Codec
Профиль формата : [email protected]
Настройки формата : CABAC / 5 Ref Frames
Параметр CABAC формата : Да
Параметр RefFrames формата : 5 кадров
Идентификатор кодека : V_MPEG4/ISO/AVC
Продолжительность : 1 ч. 31 м.
Битрейт : 13,9 Мбит/сек
Ширина : 1 920 пикселей
Высота : 804 пикселя
Соотношение сторон : 2,40:1
Режим частоты кадров : Постоянный
Частота кадров : 23,976 (24000/1001) кадра/сек
Цветовое пространство : YUV
Субдискретизация насыщенности : 4:2:0
Битовая глубина : 8 бит
Тип развёртки : Прогрессивная
Бит/(Пиксели*Кадры) : 0.375
Размер потока : 8,88 Гбайт (94%)
Библиотека кодирования : x264 core 146 -from seleZen
Настройки программы : cabac=1 / ref=5 / deblock=1:-2:-2 / analyse=0x3:0x133 / me=umh / subme=10 / psy=1 / psy_rd=1.02:0.02 / mixed_ref=1 / me_range=32 / chroma_me=1 / trellis=2 / 8x8dct=1 / cqm=0 / deadzone=21,11 / fast_pskip=0 / chroma_qp_offset=-3 / threads=36 / lookahead_threads=6 / sliced_threads=0 / nr=0 / decimate=0 / interlaced=0 / bluray_compat=0 / constrained_intra=0 / bframes=8 / b_pyramid=2 / b_adapt=2 / b_bias=0 / direct=3 / weightb=1 / open_gop=0 / weightp=2 / keyint=240 / keyint_min=23 / scenecut=40 / intra_refresh=0 / rc_lookahead=50 / rc=2pass / mbtree=0 / bitrate=13877 / ratetol=1.0 / qcomp=0.60 / qpmin=0 / qpmax=51 / qpstep=4 / cplxblur=20.0 / qblur=0.5 / vbv_maxrate=50000 / vbv_bufsize=62500 / nal_hrd=none / filler=0 / ip_ratio=1.40 / pb_ratio=1.30 / aq=3:0.80
Язык : English
Default : Да
Forced : Нет

Аудио #1
Идентификатор : 2
Формат : AC-3
Формат/Информация : Audio Coding 3
Коммерческое название : Dolby Digital
Идентификатор кодека : A_AC3
Продолжительность : 1 ч. 31 м.
Вид битрейта : Постоянный
Битрейт : 384 Кбит/сек
Каналы : 6 каналов
Channel layout : L R C LFE Ls Rs
Частота : 48,0 КГц
Частота кадров : 31,250 кадров/сек (1536 SPF)
Метод сжатия : С потерями
Размер потока : 252 Мбайт (3%)
Язык : Russian
Service kind : Complete Main
Default : Да
Forced : Нет

Аудио #2
Идентификатор : 3
Формат : AC-3
Формат/Информация : Audio Coding 3
Коммерческое название : Dolby Digital
Идентификатор кодека : A_AC3
Продолжительность : 1 ч. 31 м.
Вид битрейта : Постоянный
Битрейт : 448 Кбит/сек
Каналы : 6 каналов
Channel layout : L R C LFE Ls Rs
Частота : 48,0 КГц
Частота кадров : 31,250 кадров/сек (1536 SPF)
Метод сжатия : С потерями
Размер потока : 294 Мбайт (3%)
Язык : English
Service kind : Complete Main
Default : Нет
Forced : Нет

Текст #1
Идентификатор : 4
Формат : UTF-8
Идентификатор кодека : S_TEXT/UTF8
Идентификатор кодека/Информация : UTF-8 Plain Text
Продолжительность : 1 ч. 29 м.
Битрейт : 47 бит/сек
Count of elements : 660
Размер потока : 31,3 Кбайт (0%)
Заголовок : Full
Язык : Russian
Default : Нет
Forced : Нет

Текст #2
Идентификатор : 5
Формат : UTF-8
Идентификатор кодека : S_TEXT/UTF8
Идентификатор кодека/Информация : UTF-8 Plain Text
Продолжительность : 1 ч. 28 м.
Битрейт : 51 бит/сек
Count of elements : 805
Размер потока : 33,3 Кбайт (0%)
Заголовок : Full | FOCS
Язык : Russian
Default : Нет
Forced : Нет

Текст #3
Идентификатор : 6
Формат : UTF-8
Идентификатор кодека : S_TEXT/UTF8
Идентификатор кодека/Информация : UTF-8 Plain Text
Продолжительность : 1 ч. 26 м.
Битрейт : 28 бит/сек
Count of elements : 740
Размер потока : 18,1 Кбайт (0%)
Заголовок : Full
Язык : English
Default : Нет
Forced : Нет

Текст #4
Идентификатор : 7
Формат : UTF-8
Идентификатор кодека : S_TEXT/UTF8
Идентификатор кодека/Информация : UTF-8 Plain Text
Продолжительность : 1 ч. 31 м.
Битрейт : 48 бит/сек
Count of elements : 1329
Размер потока : 32,4 Кбайт (0%)
Заголовок : SDH
Язык : English
Default : Нет
Forced : Нет

Меню
00:00:00.000 : Just a Nobody
00:02:04.249 : Suburban Life
00:09:01.540 : Paternal Inadequacy
00:15:02.693 : Covert Counseling
00:19:18.198 : Seeking Revenge
00:24:56.286 : One Door Opens
00:32:15.933 : Reminiscing the Past
00:35:37.468 : Yulian
00:40:01.065 : Enraged Sibling
00:43:43.203 : Visiting the Barber
00:47:29.221 : Vengeful Intrusion
00:50:56.636 : Trunk Awakening
00:54:46.783 : Trust Me
00:57:32.073 : Living Room Confession
01:04:16.686 : New Management
01:06:54.844 : Storming Obshak
01:08:59.802 : Came for the Show
01:13:20.646 : Chasing Revenge
01:15:26.355 : Last Stand
01:21:05.569 : Everybody Dies
01:24:06.499 : Not Much of an Answer
01:26:16.963 : End Credits[/spoiler][spoiler=Скриншоты][url=https://imageban.ru/show/2021/09/20/7d828b383e4bb2994b22a280b44583d4/png]Никто / Nobody (2021) BDRip 1080p | Кубик в кубе
[/spoiler]
Скачать файл: Никто / Nobody (2021) BDRip 1080p | Кубик в кубе [47,74 Kb] (cкачиваний: 4)
По ссылке ниже, на этой странице, доступна для загрузки с торрента музыкальный сборник Никто / Nobody (2021) BDRip 1080p | Кубик в кубе напрямую с сервера на PC бесплатно.

Комментарии к материалу
Кликните на изображение чтобы обновить код, если он неразборчив