Добавить

Сборник Никто / Nobody (2021) BDRip 1080p | P2, A скачать торрент

23.09.2021 - 20:00



Информация о фильме
Название: Никто
Оригинальное название: Nobody
Год выхода: 2021
Жанр: [spoiler=MediaInfo]General
Unique ID : 34070004442832946002414590445861551276 (0x19A1A4E8BB02EE3DA19BA86126E13CAC)
Complete name : Nobody.2021.BDRip.1080p.mkv
Format : Matroska
Format version : Version 4
File size : 9.82 GiB
Duration : 1 h 31 min
Overall bit rate : 15.3 Mb/s
Movie name : Никто / Nobody (2021)
Encoded date : UTC 2021-09-23 15:37:39
Writing application : mkvmerge v61.0.0 ('So') 64-bit
Writing library : libebml v1.4.2 + libmatroska v1.6.4

Video
ID : 1
Format : AVC
Format/Info : Advanced Video Codec
Format profile : [email protected]
Format settings : CABAC / 5 Ref Frames
Format settings, CABAC : Yes
Format settings, Reference fra : 5 frames
Codec ID : V_MPEG4/ISO/AVC
Duration : 1 h 31 min
Bit rate : 13.9 Mb/s
Width : 1 920 pixels
Height : 804 pixels
Display aspect ratio : 2.40:1
Frame rate mode : Constant
Frame rate : 23.976 (24000/1001) FPS
Color space : YUV
Chroma subsampling : 4:2:0
Bit depth : 8 bits
Scan type : Progressive
Bits/(Pixel*Frame) : 0.375
Stream size : 8.88 GiB (90%)
Writing library : x264 core 146 -from seleZen
Encoding settings : cabac=1 / ref=5 / deblock=1:-2:-2 / analyse=0x3:0x133 / me=umh / subme=10 / psy=1 / psy_rd=1.02:0.02 / mixed_ref=1 / me_range=32 / chroma_me=1 / trellis=2 / 8x8dct=1 / cqm=0 / deadzone=21,11 / fast_pskip=0 / chroma_qp_offset=-3 / threads=36 / lookahead_threads=6 / sliced_threads=0 / nr=0 / decimate=0 / interlaced=0 / bluray_compat=0 / constrained_intra=0 / bframes=8 / b_pyramid=2 / b_adapt=2 / b_bias=0 / direct=3 / weightb=1 / open_gop=0 / weightp=2 / keyint=240 / keyint_min=23 / scenecut=40 / intra_refresh=0 / rc_lookahead=50 / rc=2pass / mbtree=0 / bitrate=13877 / ratetol=1.0 / qcomp=0.60 / qpmin=0 / qpmax=51 / qpstep=4 / cplxblur=20.0 / qblur=0.5 / vbv_maxrate=50000 / vbv_bufsize=62500 / nal_hrd=none / filler=0 / ip_ratio=1.40 / pb_ratio=1.30 / aq=3:0.80
Language : English
Default : Yes
Forced : No

Audio #1
ID : 2
Format : AC-3
Format/Info : Audio Coding 3
Commercial name : Dolby Digital
Codec ID : A_AC3
Duration : 1 h 31 min
Bit rate mode : Constant
Bit rate : 384 kb/s
Channel(s) : 6 channels
Channel layout : L R C LFE Ls Rs
Sampling rate : 48.0 kHz
Frame rate : 31.250 FPS (1536 SPF)
Compression mode : Lossy
Stream size : 252 MiB (3%)
Title : Кубик в кубе
Language : Russian
Service kind : Complete Main
Default : Yes
Forced : No

Audio #2
ID : 3
Format : AC-3
Format/Info : Audio Coding 3
Commercial name : Dolby Digital
Codec ID : A_AC3
Duration : 1 h 31 min
Bit rate mode : Constant
Bit rate : 640 kb/s
Channel(s) : 6 channels
Channel layout : L R C LFE Ls Rs
Sampling rate : 48.0 kHz
Frame rate : 31.250 FPS (1536 SPF)
Compression mode : Lossy
Stream size : 420 MiB (4%)
Title : Д.Пучков
Language : Russian
Service kind : Complete Main
Default : No
Forced : No

Audio #3
ID : 4
Format : AC-3
Format/Info : Audio Coding 3
Commercial name : Dolby Digital
Codec ID : A_AC3
Duration : 1 h 31 min
Bit rate mode : Constant
Bit rate : 448 kb/s
Channel(s) : 6 channels
Channel layout : L R C LFE Ls Rs
Sampling rate : 48.0 kHz
Frame rate : 31.250 FPS (1536 SPF)
Compression mode : Lossy
Stream size : 294 MiB (3%)
Language : English
Service kind : Complete Main
Default : No
Forced : No

Text #1
ID : 5
Format : UTF-8
Codec ID : S_TEXT/UTF8
Codec ID/Info : UTF-8 Plain Text
Duration : 1 h 29 min
Bit rate : 47 b/s
Count of elements : 660
Stream size : 31.3 KiB (0%)
Title : Full
Language : Russian
Default : No
Forced : No

Text #2
ID : 6
Format : UTF-8
Codec ID : S_TEXT/UTF8
Codec ID/Info : UTF-8 Plain Text
Duration : 1 h 28 min
Bit rate : 51 b/s
Count of elements : 805
Stream size : 33.3 KiB (0%)
Title : Full | FOCS
Language : Russian
Default : No
Forced : No

Menu
00:00:00.000 : Just a Nobody
00:02:04.249 : Suburban Life
00:09:01.540 : Paternal Inadequacy
00:15:02.693 : Covert Counseling
00:19:18.198 : Seeking Revenge
00:24:56.286 : One Door Opens
00:32:15.933 : Reminiscing the Past
00:35:37.468 : Yulian
00:40:01.065 : Enraged Sibling
00:43:43.203 : Visiting the Barber
00:47:29.221 : Vengeful Intrusion
00:50:56.636 : Trunk Awakening
00:54:46.783 : Trust Me
00:57:32.073 : Living Room Confession
01:04:16.686 : New Management
01:06:54.844 : Storming Obshak
01:08:59.802 : Came for the Show
01:13:20.646 : Chasing Revenge
01:15:26.355 : Last Stand
01:21:05.569 : Everybody Dies
01:24:06.499 : Not Much of an Answer
01:26:16.963 : End Credits[/spoiler][spoiler=Скриншоты][url=https://imageban.ru/show/2021/09/20/7d828b383e4bb2994b22a280b44583d4/png]Никто / Nobody (2021) BDRip 1080p | P2, A
[/spoiler]
Скачать файл: Никто / Nobody (2021) BDRip 1080p | P2, A [49,79 Kb] (cкачиваний: 1)
По ссылке ниже, на этой странице, доступна для загрузки с торрента музыкальный сборник Никто / Nobody (2021) BDRip 1080p | P2, A напрямую с сервера на PC бесплатно.

Комментарии к материалу
Кликните на изображение чтобы обновить код, если он неразборчив